Master (2021) Hindi (HQ Line) 720p WEBRip x264 AAC. ESub.

  • Category Movies
  • Type Bollywood
  • Language Hindi
  • Total size 1.7 GB
  • Uploaded By krishh1337
  • Downloads 50533
  • Last checked 1 month ago
  • Date uploaded 1 month ago
  • Seeders 730
  • Leechers 742

The Touch of the Master's Hand

Troubled by an unnatural temptation, a young Mormon missionary must confess the humiliating depths of his pornography addiction.

Infohash : B3B2AB38DC6BED9715EDB5E713484C24249E5C91



Master (2021):
An alcoholic professor who is sent to a juvenile school, where he clashes with a gangster,
who uses the children of the school for criminal activities.

Cast: Malavika Mohanan, Joseph Vijay, Vijay Sethupathi
Director: Lokesh Kanagaraj.

Format : Matroska
Format version : Version 4
File size : 1.71 GiB
Duration : 2 h 57 min
Overall bit rate : 1 377 kb/s

Video
ID : 1
Format : AVC
Format/Info : Advanced Video Codec
Format profile : [email protected]
Format settings : CABAC / 5 Ref Frames
Format settings, CABAC : Yes
Format settings, Reference frames : 5 frames
Codec ID : V_MPEG4/ISO/AVC
Duration : 2 h 57 min
Bit rate : 1 281 kb/s
Width : 1 280 pixels
Height : 528 pixels
Display aspect ratio : 2.40:1
Original display aspect ratio : 2.40:1
Frame rate mode : Constant
Frame rate : 24.000 FPS
Color space : YUV
Chroma subsampling : 4:2:0
Bit depth : 8 bits
Scan type : Progressive
Bits/(Pixel*Frame) : 0.079
Stream size : 1.59 GiB (93%)

Audio
ID : 2
Format : AAC LC
Format/Info : Advanced Audio Codec Low Complexity
Codec ID : A_AAC-2
Duration : 2 h 57 min
Bit rate : 93.6 kb/s
Channel(s) : 2 channels
Channel layout : L R
Sampling rate : 44.1 kHz
Frame rate : 43.066 FPS (1024 SPF)
Compression mode : Lossy
Stream size : 119 MiB (7%)
Language : Hindi
Default : Yes
Forced : No

Text
ID : 3
Format : UTF-8
Codec ID : S_TEXT/UTF8
Codec ID/Info : UTF-8 Plain Text
Duration : 2 h 52 min
Bit rate : 63 b/s
Count of elements : 2494
Stream size : 80.3 KiB (0%)
Language : English
Default : Yes
Forced : No

Files:

  • Master (2021) Hindi (HQ Line) 720p WEBRip x264 AAC. ESub.mkv (1.7 GB)

Comments

Code:

  • udp://9.rarbg.me:2780/announce
  • udp://9.rarbg.to:2730/announce
  • udp://tracker.tiny-vps.com:6969/announce
  • udp://tracker.torrent.eu.org:451/announce
  • udp://exodus.desync.com:6969/announce
  • http://explodie.org:6969/announce
  • http://tracker.opentrackr.org:1337/announce
  • udp://9.rarbg.to:2800/announce
  • http://tracker.skyts.net:6969/announce
  • http://t.nyaatracker.com:80/announce
  • udp://open.stealth.si:80/announce
  • UDP://TRACKER.OPENTRACKR.ORG:1337/ANNOUNCE
  • http://91.217.91.21:3218/announce
  • http://tracker.dler.org:6969/announce
  • udp://ipv4.tracker.harry.lu:80/announce